Mortal Kombat Legacy.2.2013.WEB-DL.Rip.HiMa

seeders: 3
leechers: 0
updated:
Added in Movies
Downloaded 46 times.

Summary:

10 years ago, Lui Kang saw his fiancée gunned down right in front of him. In the present day, the participants in the mortal combat tournament arrive on the island

Written by Sasidhar.18.98K
Mortal Kombat Legacy.2.2013.WEB-DL.Rip.HiMa (Size: 698.53 MB)
  Mortal Kombat Legacy.2.2013.WEB-DL.Rip.HiMa.mkv 698.53 MB

Description

Mortal Kombat Legacy.2.2013.WEB-DL



Just HI Demux & Re.Encode For WEB Episodes , And Cut The Intro And The Outro Of Episodes
Legacy.2.2013.WEB-DL.Rip.HiMa.mkv

Format : Matroska

Format version : Version 2

File size : 699 MiB

Duration : 1h 17mn

Overall bit rate : 1 263 Kbps

Encoded date : UTC 2013-10-10 20:55:35

Writing application : mkvmerge v6.2.0 ('Promised Land') built on Apr 28 2013 12:22:01

Writing library : libebml v1.3.0 + libmatroska v1.4.0
Video

ID : 1

Format : AVC

Format/Info : Advanced Video Codec

Format profile : High@L3.1

Format settings, CABAC : Yes

Format settings, ReFrames : 4 frames

Codec ID : V_MPEG4/ISO/AVC

Duration : 1h 17mn

Bit rate : 877 Kbps

Width : 1 264 pixels

Height : 544 pixels

Display aspect ratio : 2.35:1

Frame rate : 23.976 fps

Color space : YUV

Chroma subsampling : 4:2:0

Bit depth : 8 bits

Scan type : Progressive

Bits/(Pixel*Frame) : 0.053

Stream size : 472 MiB (68%)

Writing library : x264 core


Audio

ID : 2

Format : AC-3

Format/Info : Audio Coding 3

Mode extension : CM (complete main)

Codec ID : A_AC3

Duration : 1h 17mn

Bit rate mode : Constant

Bit rate : 384 Kbps

Channel(s) : 2 channels

Channel positions : Front: L R

Sampling rate : 48.0 KHz

Bit depth : 16 bits

Compression mode : Lossy

Stream size : 212 MiB (30%)
Keep Seed

Related Torrents

torrent name size files age seed leech

Sharing Widget


Download torrent
698.53 MB
seeders:3
leechers:0
Mortal Kombat Legacy.2.2013.WEB-DL.Rip.HiMa



To share this torrent use the code below and insert it into comments, status messages, forum posts or your signature.

Torrent: Mortal Kombat Legacy.2.2013.WEB-DL.Rip.HiMa

Trackers

tracker name
udp://9.rarbg.com:2710/announce
udp://tracker.openbittorrent.com:80/announce
udp://tracker.publicbt.com:80/announce
udp://tracker.istole.it:80/announce
http://exodus.desync.com/announce
udp://fr33dom.h33t.com:3310/announce
µTorrent compatible trackers list

Locations

name
ExtraTorrent
Torrent hash: 66608AF2BD8EEEE0885E6D07AB01CD92154E560D

All Comments

audio
10/10
video
10/10
please, leave only comments related to that torrent
Sign In

audio: 10video: 10
Cool...thanks
Would be nice if someone did Season 1 like this with the BRRIPs

User Opinions

cjbbaugh2690, HakiLucario2290, eioob1535, Orgath1476, MoBaGuNnER$MN1271, Masurao1268, asia_rules1216, 22matt221063, ninja1972984, Barbellz22 ... And 32 more
HotStoof691143
Report a bug