Armor Of God 1987H264-AAC DVDrip - CaRNaGE

seeders: 0
leechers: 0
updated:
Added in Movies
Torrent verified. Downloaded 10 times.

Summary:

Ear-splitting improvisational noise sculpture and Christianity aren't normally mentioned in the same breath. But they are the twin passions of North Carolina musician Scotty Irving, and the essential elements of his one-man act, Clang Quartet. Using homemade instruments achieving unfathomable volumes (and inspired by Biblical verse), Irving challenges his audience to rethink traditional ideas of music and spirituality. When Irving's motivations for walking so far out on musical and theological limbs are revealed, the "Armor of God" becomes a metaphor for the courage to create.

Written by KnightHunters18.58K
Armor Of God 1987H264-AAC DVDrip - CaRNaGE (Size: 1.41 GB)
  Armor Of God [1987][H264-AAC] DVDrip - CaRNaGE.mp4 1.41 GB
  Armor Of God [1987][H264-AAC] DVDrip - CaRNaGE.nfo 2.41 KB
  Torrent downloaded from Demonoid.me.txt 46 bytes

Description

Armor Of God [1987][H264-AAC] DVDrip - CaRNaGE

http://www.imdb.com/title/tt0091431/

Jackie Chan and his bumbling sidekick are sent on a quest through Europe to find a mysterious treasure held by a shadowy organization of monks.

IMDb Rating: 6.7 / 10



Encoding

VIDEO

Format : AVC
Format/Info : Advanced Video Codec
Format profile : Baseline@L5.1
Format settings, CABAC : No
Format settings, ReFrames : 1 frame
Codec ID : avc1
Codec ID/Info : Advanced Video Coding
Duration : 1h 34mn
Bit rate mode : Variable
Bit rate : 1 999 Kbps
Width : 720 pixels
Height : 576 pixels
Display aspect ratio : 16:9
Frame rate mode : Constant
Frame rate : 25.000 fps
Standard : PAL
Color space : YUV
Chroma subsampling : 4:2:0
Bit depth : 8 bits
Scan type : Progressive
Bits/(Pixel*Frame) : 0.193
Stream size : 1.32 GiB (93%)
Encoded date : UTC 2010-12-28 11:56:58
Tagged date : UTC 2010-12-28 11:56:58

AUDIO

Format : AAC
Format/Info : Advanced Audio Codec
Format version : Version 4
Format profile : LC
Format settings, SBR : No
Codec ID : 40
Duration : 1h 34mn
Bit rate mode : Variable
Bit rate : 144 Kbps
Channel(s) : 6 channels
Channel positions : Front: L C R, Side: L R, LFE
Sampling rate : 48.0 KHz
Stream size : 96.7 MiB (7%)
Encoded date : UTC 2010-12-28 11:56:58
Tagged date : UTC 2010-12-28 11:56:58

Brought to you by



CaRNaGE

Sharing Widget


Download torrent
1.41 GB
seeders:0
leechers:0
Armor Of God 1987H264-AAC DVDrip - CaRNaGE



To share this torrent use the code below and insert it into comments, status messages, forum posts or your signature.

Torrent: Armor Of God 1987H264-AAC DVDrip - CaRNaGE

Trackers

tracker name
udp://tracker.openbittorrent.com:80/announce
http://pow7.com/announce
http://inferno.demonoid.me:3412/announce
udp://tracker.publicbt.com:80/announce
http://tracker.openbittorrent.com/announce
http://nemesis.1337x.org/announce
http://genesis.1337x.org:1337/announce
http://exodus.1337x.org/announce
http://10.rarbg.com/announce
http://tracker.publicbt.com/announce
http://fr33dom.h33t.com:3310/announce
µTorrent compatible trackers list

Locations

name
ExtraTorrent
Torrent hash: 474e5f1d24165a474c94cd50605f489accac8bed

All Comments

audio
0/10
video
0/10
please, leave only comments related to that torrent
Sign In


User Opinions

Report a bug