25th Hour (2002) - DVDRip - XviD

seeders: 3
leechers: 1
updated:
Added in Movies
Torrent verified. Downloaded 306 times.

Summary:

Cornered by the DEA, convicted New York drug dealer Montgomery Brogan reevaluates his life in the 24 remaining hours before facing a seven-year jail term.

Written by thePiratePimp69.01K
Available in versions: 1080p720pDVDRip
25th Hour (2002) - DVDRip - XviD (Size: 699.96 MB)
  25th Hour (2002).avi 699.96 MB

Description

Cornered by the DEA, convicted New York drug dealer Montgomery Brogan (Norton) reevaluates his life in the 24 remaining hours before facing a seven-year jail term.

The 25th Hour depicts the last day of freedom for a young man before he begins serving a seven-year jail term for drug dealing. Prowling through the city until dawn with his two close male friends and his girlfriend, he is forced to re-examine his life and how he got himself into his predicament, which leads to a shocking, disturbing finale.
IMDB Rating 7.9/10 (47,578 votes)
---------------------------------

General
Complete name : 25th Hour (2002).avi
Format : AVI
Format/Info : Audio Video Interleave
File size : 700 MiB
Duration : 2h 14mn
Overall bit rate : 727 Kbps
Writing application : VirtualDubMod 1.5.4.1 (build 2178/release)
Writing library : VirtualDubMod build 2178/release

Video
Format : MPEG-4 Visual
Format profile : Streaming Video@L1
Format settings, BVOP : Yes
Format settings, QPel : No
Format settings, GMC : No warppoints
Format settings, Matrix : Custom
Codec ID : XVID
Codec ID/Hint : XviD
Duration : 2h 14mn
Bit rate : 592 Kbps
Width : 608 pixels
Height : 256 pixels
Display aspect ratio : 2.35
Frame rate : 25.000 fps
Resolution : 24 bits
Colorimetry : 4:2:0
Scan type : Progressive
Bits/(Pixel*Frame) : 0.152
Stream size : 570 MiB (81%)
Writing library : XviD 1.2.0.dev47 (UTC 2006-11-01)

Audio
Format : MPEG Audio
Format version : Version 1
Format profile : Layer 3
Codec ID : 55
Codec ID/Hint : MP3
Duration : 2h 14mn
Bit rate mode : Constant
Bit rate : 128 Kbps
Minimum bit rate : 128 Kbps
Channel(s) : 2 channels
Sampling rate : 48.0 KHz
Resolution : 16 bits
Stream size : 123 MiB (18%)
Alignment : Aligned on interleaves
Interleave, duration : 80 ms (2.00 video frames)
Interleave, preload duration : 504 ms
Writing library : LAME3.97
Encoding settings : CBRScreen thumbnails:

http://img19.picoodle.com/im...3/f_thumbs20090m_6a65b8d.png
Please help your fellow pirates by seeding after download!

Related Torrents

torrent name size files age seed leech

Sharing Widget


Download torrent
699.96 MB
seeders:3
leechers:1
25th Hour (2002) - DVDRip - XviD



To share this torrent use the code below and insert it into comments, status messages, forum posts or your signature.

Torrent: 25th Hour (2002) - DVDRip - XviD

Trackers

tracker name
udp://tracker.openbittorrent.com:80/announce
udp://tracker.publicbt.com:80/announce
udp://tracker.istole.it:80/announce
udp://open.demonii.com:1337/announce
ĀµTorrent compatible trackers list

Locations

name
ThePirateBay
TorrentReactor
Mininova
TorrentPortal
ExtraTorrent
SumoTorrent
SumoTorrent
Torrentzap
Torrent hash: 547bd18d901acc0cea2fbfd38c9511e30d86c036

Top Comments

7
Melman1960
Why in "XXX - movie" ?

All Comments

audio
8/10
video
8/10
please, leave only comments related to that torrent
Sign In

User Opinions

pollytipsy10034.54K, RustCohle5989, inn2pink4134, SpaWndeT1817, azary910, cookie1476, EvilStimpy86350, hue93, wonderpaw81, kdodh10 ... And 187 more
Rockman11083379, deff63735, hrew201, Marmaduke5534
Report a bug